Jump to content
Калькуляторы

Мониторинг потока на предмет фриза картинки

Есть ли ПО для мониторинга потока (rtsp,rtmp или hls) на то, что картинка не меняется?

Те необходимо отследить, что картинка зависла, при этом ошибок в потоке нету.

Edited by demm

Share this post


Link to post
Share on other sites

А из платного что есть? я просто даже не знаю как правильно назвать этот функционал для погуглить.

Спасибо

Share this post


Link to post
Share on other sites

Доброго времени суток.

Может кто нибудь сталкивался....

 

Скажем так, некий телеканал отдает свой канал нам в ip, мультикастом.

 

Мы его принимаем, запускаем в prostream1000, формируем пакеты...Ну думаю не важно...Если кого заинтересует железо расскажу.

 

Проблема в том что видео из этого потока могут раскодировать не все телевизоры.Все доступные LG показывают его без проблем, телевизоры Samsung только LE серии и то не все, филипс не один из тех на которых была возможность протестировать не смог раскодировать картинку, при том что звук есть на всех телевизорах. При захвате потока в файл и попытке проиграть файл с флешки на телевизоре, ситуация та же, если канал показывает нормально, то и файл проигрывается.

 

Может кто сталкивался, подскажет, что такое может быть?

 

Телеканал кодирует сигнал на prostream ellipse 1000.

 

PS Прощу прощения что залез в тему, но недостаточно пока что одобренных сообщений, для создания новой темы.

 

 

 

 

General
ID                                       : 1 (0x1)
Complete name                            : C:\Users\Администратор\Desktop\12.mpg
Format                                   : MPEG-TS
File size                                : 39.3 MiB
Duration                                 : 1mn 3s
Overall bit rate mode                    : Variable
Overall bit rate                         : 5 174 Kbps

Video
ID                                       : 513 (0x201)
Menu ID                                  : 1 (0x1)
Format                                   : AVC
Format/Info                              : Advanced Video Codec
Format profile                           : Main@L3.0
Format settings, CABAC                   : Yes
Format settings, ReFrames                : 3 frames
Codec ID                                 : 27
Duration                                 : 1mn 3s
Bit rate mode                            : Variable
Bit rate                                 : 4 725 Kbps
Maximum bit rate                         : 5 680 Kbps
Width                                    : 720 pixels
Height                                   : 576 pixels
Display aspect ratio                     : 4:3
Frame rate                               : 25.000 fps
Standard                                 : PAL
Color space                              : YUV
Chroma subsampling                       : 4:2:0
Bit depth                                : 8 bits
Scan type                                : Interlaced
Scan order                               : Top Field First
Bits/(Pixel*Frame)                       : 0.456
Stream size                              : 35.7 MiB (91%)
Color primaries                          : BT.601 PAL
Transfer characteristics                 : BT.470 System B, BT.470 System G
Matrix coefficients                      : BT.601

Audio
ID                                       : 4112 (0x1010)
Menu ID                                  : 1 (0x1)
Format                                   : MPEG Audio
Format version                           : Version 1
Format profile                           : Layer 2
Mode                                     : Dual mono
Codec ID                                 : 4
Duration                                 : 1mn 3s
Bit rate mode                            : Constant
Bit rate                                 : 192 Kbps
Channel(s)                               : 2 channels
Sampling rate                            : 48.0 KHz
Compression mode                         : Lossy
Delay relative to video                  : 39ms
Stream size                              : 1.46 MiB (4%)

Menu
ID                                       : 32 (0x20)
Menu ID                                  : 1 (0x1)
List                                     : 513 (0x201) (AVC) / 4112 (0x1010) (MPEG Audio)
Service name                             :  
Service provider                         : Generated by TSReader 2.8.47c on 2016/11/24 16:08
Service type                             : digital television

 

 

Edited by Nikan

Share this post


Link to post
Share on other sites

Завершение истории.

Переменный битрейт оказался не причем, в простриме параметр Latency Control стоял в режиме Low, в результате в видео каждый кадр был ключевым...

Самый простой режим для декодирования и вполне возможная ситуация при кодировании, но телевизоры не отрабатывали.

Перевели в Normal всё заработало.

Share this post


Link to post
Share on other sites

если бы Вы дали картинки настроек то было проще ,

а так что дали, то и анализировали ,

при чем по опыту личному и не только моему - такое случалось и на переменном битрейте ...

Share this post


Link to post
Share on other sites

Сейчас пилю свой велосипед, столкнулся с подобными вопросами.

 

Вдохновился:

 

habrahabr.ru/post/145151

 

Как вариант делать скрины потоков раз в N секунд, а дальше есть много способов сравнивать их. От самых простых, до самых сложных.

Edited by vinza

Share this post


Link to post
Share on other sites

Create an account or sign in to comment

You need to be a member in order to leave a comment

Create an account

Sign up for a new account in our community. It's easy!

Register a new account

Sign in

Already have an account? Sign in here.

Sign In Now
Sign in to follow this